img

Статистика раздачи
Размер: 402.6 МБ | Добавлен: 05 янв 2017, 20:55 | Скачали: 0
Сидеров: 0  [0 байт/сек]    Личеров: 0  [0 байт/сек]
Пред. тема | След. тема 
Автор Сообщение

СообщениеДобавлено: 05 янв 2017, 20:55 

Не в сети
Раздал: 46.34 ТБ
Скачал: 22.72 ГБ
Ратио: 2088.257
Торренты: 3905
Lesbian Girlfriends Pleasuring Each Other In Their Cunts [.MP4]

Screen:



or:



Screenshot:



Format : MPEG-4
Format profile : Base Media
Codec ID : isom
File size : 403 MiB
Duration : 31mn 5s
Overall bit rate mode : Variable

Video
ID : 1
Format : MPEG-4 Visual
Format profile : Simple@L3
Format settings, BVOP : No
Format settings, QPel : No
Format settings, GMC : No warppoints
Format settings, Matrix : Default (H.263)
Codec ID : 20
Duration : 31mn 5s
Source duration : 31mn 4s
Source_Duration_LastFrame : -39ms
Bit rate : 1 601 Kbps
Width : 640 pixels
Height : 360 pixels
Display aspect ratio : 16:9
Frame rate mode : Constant
Frame rate : 24.975 fps
Color space : YUV
Chroma subsampling : 4:2:0
Bit depth : 8 bits
Scan type : Progressive
Compression mode : Lossy
Bits/(Pixel*Frame) : 0.278
Stream size : 356 MiB (88%)
Source stream size : 373 MiB (93%)

Audio
ID : 2
Format : AAC
Format/Info : Advanced Audio Codec
Format profile : LC
Codec ID : 40
Duration : 31mn 4s
Bit rate mode : Variable
Bit rate : 128 Kbps
Channel(s) : 2 channels
Channel positions : Front: L R
Sampling rate : 44.1 KHz
Compression mode : Lossy
Stream size : 28.4 MiB (7%)

File Size: 402 MB | Resolution: 640x360 | Duration: 31:04 | Format: mp4

Правила, инструкции, FAQ!!!
Добавлен  05 янв 2017, 20:55

Скачать торрент
Скачать торрент
4.22 КБ

Статус
 
Размер  402.6 МБ
Приватный: Нет (DHT включён)
.torrent скачан  0
Не качается торрент? Как скачать Torrent?  




Вернуться к началу
    Профиль Отправить личное сообщение
Страница 1 из 1
Показать сообщения за:  Поле сортировки  
Начать новую тему Ответить на тему


Сейчас этот форум просматривают: нет зарегистрированных пользователей и гости: 5


Вы не можете начинать темы
Вы не можете отвечать на сообщения
Вы не можете редактировать свои сообщения
Вы не можете удалять свои сообщения
Вы не можете добавлять вложения

Перейти:  
Для Мосгорсуда, Роскомнадзора и рекламодателей: mosgorsud-torrent[собачка]yandex.ru
ppkBB3cker v.2 © 2008-2014 @ PPK | style by 9CaraTT

Ресурс не предоставляет электронные версии произведений, а занимается лишь коллекционированием и каталогизацией ссылок, присылаемых и публикуемых на форуме нашими читателями. Если вы являетесь правообладателем какого-либо представленного материала и не желаете чтобы ссылка на него находилась в нашем каталоге, свяжитесь с нами и мы незамедлительно удалим её. Файлы для обмена на трекере предоставлены пользователями сайта, и администрация не несёт ответственности за их содержание. Просьба не заливать файлы, защищенные авторскими правами, а также файлы нелегального содержания!