img

Статистика раздачи
Размер: 1.9 ГБ | Добавлен: 02 янв 2017, 15:07 | Скачали: 4
Сидеров: 0  [0 байт/сек]    Личеров: 0  [0 байт/сек]
Пред. тема | След. тема 
Автор Сообщение

СообщениеДобавлено: 02 янв 2017, 15:07 

Не в сети
Раздал: 46.34 ТБ
Скачал: 22.72 ГБ
Ратио: 2088.257
Торренты: 3889
Femmes Mariees Tres Vicieuses (2016)[DVDRIP][.MP4]

Screen:











COVER:



Format : MPEG-4
Format profile : Base Media
Codec ID : isom
File size : 1.90 GiB
Duration : 1h 42mn
Overall bit rate mode : Variable
Overall bit rate : 2 657 Kbps

Video
ID : 2
Format : AVC
Format/Info : Advanced Video Codec
Format profile : Baseline@L3.0
Format settings, CABAC : No
Format settings, ReFrames : 1 frame
Format settings, GOP : M=1, N=25
Muxing mode : Container profile=Baseline@4.1
Codec ID : avc1
Codec ID/Info : Advanced Video Coding
Duration : 1h 42mn
Bit rate : 2 504 Kbps
Width : 1 280 pixels
Height : 720 pixels
Display aspect ratio : 16:9
Frame rate mode : Constant
Frame rate : 25.000 fps
Color space : YUV
Chroma subsampling : 4:2:0
Bit depth : 8 bits
Scan type : Progressive
Bits/(Pixel*Frame) : 0.109
Stream size : 1.79 GiB (94%)
Language : French

Audio
ID : 1
Format : AAC
Format/Info : Advanced Audio Codec
Format profile : LC
Codec ID : 40
Duration : 1h 42mn
Bit rate mode : Variable
Bit rate : 148 Kbps
Maximum bit rate : 232 Kbps
Channel(s) : 2 channels
Channel positions : Front: L R
Sampling rate : 44.1 KHz
Compression mode : Lossy
Stream size : 109 MiB (6%)

Text
ID : 3
Format : Apple text
Codec ID : text
Duration : 1h 42mn
Bit rate : 0 bps
Stream size : 23.0 Bytes (0%)
Language : French

File Size: 1,90 GB | Resolution: 1280x720 | Duration: 01:42:30 | Format: mp4

Правила, инструкции, FAQ!!!
Добавлен  02 янв 2017, 15:07

Данный торрент является блокированным, причина: недооформленный торрент
FMTV.mp4.torrent
19.27 КБ

Статус
Недооформлен
Ronsen (04 апр 2017, 16:12)
 
Размер  1.9 ГБ
Приватный: Нет (DHT включён)
.torrent скачан  4
Не качается торрент? Как скачать Torrent?  




Вернуться к началу
    Профиль Отправить личное сообщение
Страница 1 из 1
Показать сообщения за:  Поле сортировки  
Начать новую тему Ответить на тему


Сейчас этот форум просматривают: нет зарегистрированных пользователей и гости: 3


Вы не можете начинать темы
Вы не можете отвечать на сообщения
Вы не можете редактировать свои сообщения
Вы не можете удалять свои сообщения
Вы не можете добавлять вложения

Перейти:  
Для Мосгорсуда, Роскомнадзора и рекламодателей: mosgorsud-torrent[собачка]yandex.ru
ppkBB3cker v.2 © 2008-2014 @ PPK | style by 9CaraTT

Ресурс не предоставляет электронные версии произведений, а занимается лишь коллекционированием и каталогизацией ссылок, присылаемых и публикуемых на форуме нашими читателями. Если вы являетесь правообладателем какого-либо представленного материала и не желаете чтобы ссылка на него находилась в нашем каталоге, свяжитесь с нами и мы незамедлительно удалим её. Файлы для обмена на трекере предоставлены пользователями сайта, и администрация не несёт ответственности за их содержание. Просьба не заливать файлы, защищенные авторскими правами, а также файлы нелегального содержания!