img

Статистика раздачи
Размер: 1.36 ГБ | Добавлен: 20 окт 2016, 13:05 | Скачали: 0
Сидеров: 2  [0 байт/сек]    Личеров: 1  [0 байт/сек]
Пред. тема | След. тема 
Автор Сообщение

СообщениеДобавлено: 20 окт 2016, 13:05 

Не в сети
Раздал: 311.37 ТБ
Скачал: 125.76 ТБ
Ратио: 2.476
Торренты: 6846
Год производства: 2016
Жанр: POV , Milf , Big Butts , Tattoos
Тип видео : HD
Формат видео : MP4
Video
ID : 1
Format : AVC
Format/Info : Advanced Video Codec
Format profile : Main@L4.2
Format settings, CABAC : Yes
Format settings, ReFrames : 3 frames
Format settings, GOP : M=4, N=25
Codec ID : avc1
Codec ID/Info : Advanced Video Coding
Duration : 17mn 21s
Bit rate : 11.0 Mbps
Width : 1 920 pixels
Height : 1 080 pixels
Display aspect ratio : 16:9
Frame rate mode : Constant
Frame rate : 25.000 fps
Standard : PAL
Color space : YUV
Chroma subsampling : 4:2:0
Bit depth : 8 bits
Scan type : Progressive
Bits/(Pixel*Frame) : 0.212
Stream size : 1.33 GiB (98%)
Encoded date : UTC 1904-01-01 00:00:00
Tagged date : UTC 1904-01-01 00:00:00
Color range : Limited
Color primaries : BT.709
Transfer characteristics : BT.709
Matrix coefficients : BT.709

Audio
ID : 2
Format : AAC
Format/Info : Advanced Audio Codec
Format profile : LC
Codec ID : 40
Duration : 17mn 21s
Bit rate mode : Constant
Bit rate : 192 Kbps
Channel(s) : 2 channels
Channel positions : Front: L R
Sampling rate : 48.0 KHz
Frame rate : 46.875 fps (1024 spf)
Compression mode : Lossy
Stream size : 23.5 MiB (2%)
Default : Yes
Alternate group : 1
Encoded date : UTC 1904-01-01 00:00:00

Скриншоты:

Правила, инструкции, FAQ!!!
Добавлен  20 окт 2016, 13:05

Скачать торрент
Скачать торрент
109.19 КБ

Статус
 
Размер  1.36 ГБ
Приватный: Нет (DHT включён)
.torrent скачан  0
Не качается торрент? Как скачать Torrent?  




Вернуться к началу
    Профиль Отправить личное сообщение
Страница 1 из 1
Показать сообщения за:  Поле сортировки  
Начать новую тему Ответить на тему


Сейчас этот форум просматривают: нет зарегистрированных пользователей и гости: 5


Вы не можете начинать темы
Вы не можете отвечать на сообщения
Вы не можете редактировать свои сообщения
Вы не можете удалять свои сообщения
Вы не можете добавлять вложения

Перейти:  
Для Мосгорсуда, Роскомнадзора и рекламодателей: mosgorsud-torrent[собачка]yandex.ru
ppkBB3cker v.2 © 2008-2014 @ PPK | style by 9CaraTT

Ресурс не предоставляет электронные версии произведений, а занимается лишь коллекционированием и каталогизацией ссылок, присылаемых и публикуемых на форуме нашими читателями. Если вы являетесь правообладателем какого-либо представленного материала и не желаете чтобы ссылка на него находилась в нашем каталоге, свяжитесь с нами и мы незамедлительно удалим её. Файлы для обмена на трекере предоставлены пользователями сайта, и администрация не несёт ответственности за их содержание. Просьба не заливать файлы, защищенные авторскими правами, а также файлы нелегального содержания!