img

Статистика раздачи
Размер: 2.17 ГБ | Добавлен: 04 ноя 2016, 13:26 | Скачали: 659
Сидеров: 103  [0 байт/сек]    Личеров: 210  [0 байт/сек]
Пред. тема | След. тема 
Автор Сообщение

СообщениеДобавлено: 04 ноя 2016, 13:26 

Не в сети
Раздал: 196.67 ТБ
Скачал: 108.7 ТБ
Ратио: 1.809
Торренты: 6784
Год производства: 2016
Жанр: All Sex
Продолжительность: 30mn 42s

We got a call. A break in at the industrial office complex on Mainland and 3rd. We arrived on the scene and found that the back
door was open so we entered and began inspecting the scene. We found the suspect in the back of the offices, he has two
computer screens on his hands and he looked to be stealing them. We told him to freeze but the suspect ran into a back room and
out some hallways. We gave chase and the suspect led us to the roof of the complex. We knew we had him cornered, so we split
up and began scanning the roof. We found the suspect hiding behind some A/C units and we made an arrest. After we subdued the
suspect. We patted him down and we found out that he had a big black dick. So we now know that he was armed, we had to
inspect him thoroughly with our mouths. We sucked his dick and saw that his weapon was dangerous. So had to take him down and
fuck that dick in order to save situation. Law and order was established when we look a load of his cum.
Тип видео : HD
Формат видео : MP4
File: bpatrol.16.11.04.patrol.9.mp4
Size: 2334932928 bytes (2.17 GiB),
duration: 00:30:42, avg.bitrate: 10141 kb/s
Audio: aac, 32000 Hz, stereo (und)
Video: h264, yuv420p, 1920x1080, 29.97 fps(r) (und)

Video
ID : 1
Format : AVC
Format/Info : Advanced Video Codec
Format profile : High@L4.1
Format settings, CABAC : Yes
Format settings, ReFrames : 3 frames
Format settings, GOP : M=3, N=29
Codec ID : avc1
Codec ID/Info : Advanced Video Coding
Duration : 30mn 42s
Bit rate mode : Variable
Bit rate : 10.1 Mbps
Maximum bit rate : 12.0 Mbps
Width : 1 920 pixels
Height : 1 080 pixels
Display aspect ratio : 16:9
Frame rate mode : Constant
Frame rate : 29.970 (30000/1001) fps
Standard : NTSC
Color space : YUV
Chroma subsampling : 4:2:0
Bit depth : 8 bits
Scan type : Progressive
Bits/(Pixel*Frame) : 0.162
Stream size : 2.16 GiB (99%)
Encoded date : UTC 1904-01-01 00:00:00
Tagged date : UTC 1904-01-01 00:00:00
Color range : Limited
Color primaries : BT.709
Transfer characteristics : BT.709
Matrix coefficients : BT.709

Audio
ID : 2
Format : AAC
Format/Info : Advanced Audio Codec
Format profile : LC
Codec ID : 40
Duration : 30mn 42s
Bit rate mode : Constant
Bit rate : 48.0 Kbps
Channel(s) : 2 channels
Channel positions : Front: L R
Sampling rate : 32.0 KHz
Frame rate : 31.250 fps (1024 spf)
Compression mode : Lossy
Stream size : 10.2 MiB (0%)
Default : Yes
Alternate group : 1
Encoded date : UTC 1904-01-01 00:00:00
Tagged date : UTC 1904-01-01 00:00:00

Скриншоты:

Правила, инструкции, FAQ!!!
Добавлен  04 ноя 2016, 13:26

Скачать торрент
Скачать торрент
87.54 КБ

Статус
 
Размер  2.17 ГБ
Приватный: Нет (DHT включён)
.torrent скачан  659
Не качается торрент? Как скачать Torrent?  




Вернуться к началу
    Профиль Отправить личное сообщение
Страница 1 из 1
Показать сообщения за:  Поле сортировки  
Начать новую тему Ответить на тему


Сейчас этот форум просматривают: нет зарегистрированных пользователей и гости: 3


Вы не можете начинать темы
Вы не можете отвечать на сообщения
Вы не можете редактировать свои сообщения
Вы не можете удалять свои сообщения
Вы не можете добавлять вложения

Перейти:  
Для Мосгорсуда, Роскомнадзора и рекламодателей: mosgorsud-torrent[собачка]yandex.ru
ppkBB3cker v.2 © 2008-2014 @ PPK | style by 9CaraTT

Ресурс не предоставляет электронные версии произведений, а занимается лишь коллекционированием и каталогизацией ссылок, присылаемых и публикуемых на форуме нашими читателями. Если вы являетесь правообладателем какого-либо представленного материала и не желаете чтобы ссылка на него находилась в нашем каталоге, свяжитесь с нами и мы незамедлительно удалим её. Файлы для обмена на трекере предоставлены пользователями сайта, и администрация не несёт ответственности за их содержание. Просьба не заливать файлы, защищенные авторскими правами, а также файлы нелегального содержания!