img

Статистика раздачи
Размер: 604.61 МБ | Добавлен: 23 ноя 2016, 20:11 | Скачали: 1122
Сидеров: 130  [0 байт/сек]    Личеров: 115  [0 байт/сек]
Пред. тема | След. тема 
Автор Сообщение

СообщениеДобавлено: 23 ноя 2016, 20:11 

Не в сети
Раздал: 150.87 ТБ
Скачал: 97.2 ТБ
Ратио: 1.552
Торренты: 6689
Год производства: 2016
Жанр: Mature Women
Продолжительность: 10mn 50s
В ролях: Scarlet Louise

Тип видео : HD
Формат видео : WMV
Video
ID : 2
Format : VC-1
Format profile : MP@HL
Codec ID : WMV3
Codec ID/Info : Windows Media Video 9
Codec ID/Hint : WMV3
Description of the codec : Windows Media Video 9 - Professional
Duration : 10mn 50s
Bit rate mode : Constant
Bit rate : 8 197 Kbps
Width : 1 920 pixels
Height : 1 080 pixels
Display aspect ratio : 16:9
Frame rate : 23.976 (23976/1000) fps
Bit depth : 8 bits
Compression mode : Lossy
Bits/(Pixel*Frame) : 0.165
Stream size : 636 MiB
Language : English (US)

Audio
ID : 1
Format : WMA
Format version : Version 2
Codec ID : 161
Codec ID/Info : Windows Media Audio
Description of the codec : Windows Media Audio 9.2 - 192 kbps, 48 kHz, stereo (A/V) 1-pass CBR
Duration : 10mn 50s
Bit rate mode : Constant
Bit rate : 192 Kbps
Channel(s) : 2 channels
Sampling rate : 48.0 KHz
Bit depth : 16 bits
Stream size : 14.9 MiB (2%)
Language : English (US)

Скриншоты:

Правила, инструкции, FAQ!!!
Добавлен  23 ноя 2016, 20:11

Скачать торрент
Скачать торрент
47.79 КБ

Статус
 
Размер  604.61 МБ
Приватный: Нет (DHT включён)
.torrent скачан  1122
Не качается торрент? Как скачать Torrent?  




Вернуться к началу
    Профиль Отправить личное сообщение
Страница 1 из 1
Показать сообщения за:  Поле сортировки  
Начать новую тему Ответить на тему


Сейчас этот форум просматривают: нет зарегистрированных пользователей и гости: 3


Вы не можете начинать темы
Вы не можете отвечать на сообщения
Вы не можете редактировать свои сообщения
Вы не можете удалять свои сообщения
Вы не можете добавлять вложения

Перейти:  
Для Мосгорсуда, Роскомнадзора и рекламодателей: mosgorsud-torrent[собачка]yandex.ru
ppkBB3cker v.2 © 2008-2014 @ PPK | style by 9CaraTT

Ресурс не предоставляет электронные версии произведений, а занимается лишь коллекционированием и каталогизацией ссылок, присылаемых и публикуемых на форуме нашими читателями. Если вы являетесь правообладателем какого-либо представленного материала и не желаете чтобы ссылка на него находилась в нашем каталоге, свяжитесь с нами и мы незамедлительно удалим её. Файлы для обмена на трекере предоставлены пользователями сайта, и администрация не несёт ответственности за их содержание. Просьба не заливать файлы, защищенные авторскими правами, а также файлы нелегального содержания!