img

Статистика раздачи
Размер: 1.34 ГБ | Добавлен: 05 дек 2016, 22:16 | Скачали: 1362
Сидеров: 65  [0 байт/сек]    Личеров: 18  [0 байт/сек]
Пред. тема | След. тема 
Автор Сообщение

СообщениеДобавлено: 05 дек 2016, 22:16 

Не в сети
Раздал: 294.93 ТБ
Скачал: 118.95 ТБ
Ратио: 2.479
Торренты: 6848
Год производства: 2016
Жанр: Big Butts , Big Tits , Milf , Small Tits
Продолжительность: 30mn 24s
В ролях: Ava Austen , Sapphire Blue
Date........: 2016-12-04
URL.........: http://www.femalefaketaxi.com/
Тип видео : HD
Формат видео : MP4
Video
ID : 1
Format : AVC
Format/Info : Advanced Video Codec
Format profile : High@L4.1
Format settings, CABAC : Yes
Format settings, ReFrames : 5 frames
Codec ID : avc1
Codec ID/Info : Advanced Video Coding
Duration : 30mn 24s
Bit rate : 6 000 Kbps
Width : 1 920 pixels
Height : 1 080 pixels
Display aspect ratio : 16:9
Frame rate mode : Constant
Frame rate : 25.000 fps
Color space : YUV
Chroma subsampling : 4:2:0
Bit depth : 8 bits
Scan type : Progressive
Bits/(Pixel*Frame) : 0.116
Stream size : 1.30 GiB (97%)
Writing library : x264 core 148 r2665 a01e339
Encoding settings : cabac=1 / ref=5 / deblock=1:0:0 / analyse=0x3:0x113 / me=umh / subme=8 / psy=1 / psy_rd=1.00:0.00 / mixed_ref=1 / me_range=16 / chroma_me=1 / trellis=1 / 8x8dct=1 / cqm=0 / deadzone=21,11 / fast_pskip=1 / chroma_qp_offset=-2 / threads=34 / lookahead_threads=5 / sliced_threads=0 / nr=0 / decimate=1 / interlaced=0 / bluray_compat=0 / constrained_intra=0 / bframes=3 / b_pyramid=2 / b_adapt=2 / b_bias=0 / direct=3 / weightb=1 / open_gop=0 / weightp=2 / keyint=60 / keyint_min=6 / scenecut=40 / intra_refresh=0 / rc_lookahead=50 / rc=abr / mbtree=1 / bitrate=6000 / ratetol=1.0 / qcomp=0.60 / qpmin=0 / qpmax=69 / qpstep=4 / ip_ratio=1.40 / aq=1:1.00
Encoded date : UTC 1904-01-01 00:00:00
Tagged date : UTC 1904-01-01 00:00:00

Audio
ID : 2
Format : AAC
Format/Info : Advanced Audio Codec
Format profile : LC
Codec ID : 40
Duration : 30mn 24s
Bit rate mode : Constant
Bit rate : 192 Kbps
Channel(s) : 2 channels
Channel positions : Front: L R
Sampling rate : 48.0 KHz
Frame rate : 46.875 fps (1024 spf)
Compression mode : Lossy
Stream size : 41.8 MiB (3%)
Default : Yes
Alternate group : 1
Encoded date : UTC 1904-01-01 00:00:00
Tagged date : UTC 1904-01-01 00:00:00


Скриншоты:

Правила, инструкции, FAQ!!!
Добавлен  05 дек 2016, 22:16

Скачать торрент
Скачать торрент
108 КБ

Статус
 
Размер  1.34 ГБ
Приватный: Нет (DHT включён)
.torrent скачан  1362
Не качается торрент? Как скачать Torrent?  




Вернуться к началу
    Профиль Отправить личное сообщение
Страница 1 из 1
Показать сообщения за:  Поле сортировки  
Начать новую тему Ответить на тему


Сейчас этот форум просматривают: нет зарегистрированных пользователей и гости: 7


Вы не можете начинать темы
Вы не можете отвечать на сообщения
Вы не можете редактировать свои сообщения
Вы не можете удалять свои сообщения
Вы не можете добавлять вложения

Перейти:  
Для Мосгорсуда, Роскомнадзора и рекламодателей: mosgorsud-torrent[собачка]yandex.ru
ppkBB3cker v.2 © 2008-2014 @ PPK | style by 9CaraTT

Ресурс не предоставляет электронные версии произведений, а занимается лишь коллекционированием и каталогизацией ссылок, присылаемых и публикуемых на форуме нашими читателями. Если вы являетесь правообладателем какого-либо представленного материала и не желаете чтобы ссылка на него находилась в нашем каталоге, свяжитесь с нами и мы незамедлительно удалим её. Файлы для обмена на трекере предоставлены пользователями сайта, и администрация не несёт ответственности за их содержание. Просьба не заливать файлы, защищенные авторскими правами, а также файлы нелегального содержания!