img

Статистика раздачи
Размер: 1.12 ГБ | Добавлен: 02 янв 2017, 05:45 | Скачали: 8829
Сидеров: 274  [0 байт/сек]    Личеров: 210  [0 байт/сек]
Пред. тема | След. тема 
Автор Сообщение

СообщениеДобавлено: 02 янв 2017, 05:45 

Не в сети
Раздал: 153.26 ТБ
Скачал: 98.39 ТБ
Ратио: 1.558
Торренты: 6689
Genres: Blowjob, Handjob
Series: Blow Bang Girls
Year: 2016

Screenshots:

BlowBangGirls.16.12.30.Year.In.Review.56.Cumshots.XXX.1080p.
MP4-KTR

Genre.......: Adult
Files.......: 25
Video.......: MP4
Date........: 2017-01-01
URL.........: http://www.blowbanggirls.com/

Video
ID                                       : 1
Format                                   : AVC
Format/Info                              : Advanced Video Codec
Format profile                           : Main@L4.1
Format settings, CABAC                   : Yes
Format settings, ReFrames                : 3 frames
Format settings, GOP                     : M=4, N=29
Codec ID                                 : avc1
Codec ID/Info                            : Advanced Video Coding
Duration                                 : 33mn 28s
Bit rate                                 : 4 639 Kbps
Width                                    : 1 920 pixels
Height                                   : 1 080 pixels
Display aspect ratio                     : 16:9
Frame rate mode                          : Constant
Frame rate                               : 29.970 (30000/1001) fps
Standard                                 : NTSC
Color space                              : YUV
Chroma subsampling                       : 4:2:0
Bit depth                                : 8 bits
Scan type                                : Progressive
Bits/(Pixel*Frame)                       : 0.075
Stream size                              : 1.08 GiB (97%)
Encoded date                             : UTC 1904-01-01 00:00:00
Tagged date                              : UTC 1904-01-01 00:00:00
Color range                              : Limited
Color primaries                          : BT.709
Transfer characteristics                 : BT.709
Matrix coefficients                      : BT.709

Audio
ID                                       : 2
Format                                   : AAC
Format/Info                              : Advanced Audio Codec
Format profile                           : LC
Codec ID                                 : 40
Duration                                 : 33mn 28s
Duration_LastFrame                       : -10ms
Bit rate mode                            : Constant
Bit rate                                 : 157 Kbps
Channel(s)                               : 2 channels
Channel(s)_Original                      : 1 channel
Channel positions                        : Front: C
Sampling rate                            : 48.0 KHz
Frame rate                               : 46.875 fps (1024 spf)
Compression mode                         : Lossy
Stream size                              : 37.7 MiB (3%)
Default                                  : Yes
Alternate group                          : 1
Encoded date                             : UTC 1904-01-01 00:00:00
Tagged date                              : UTC 1904-01-01 00:00:00

Правила, инструкции, FAQ!!!
Добавлен  02 янв 2017, 05:45

Скачать торрент
Скачать торрент
91.35 КБ

Статус
 
Размер  1.12 ГБ
Приватный: Нет (DHT включён)
.torrent скачан  8829
Не качается торрент? Как скачать Torrent?  




Вернуться к началу
    Профиль Отправить личное сообщение
Страница 1 из 1
Показать сообщения за:  Поле сортировки  
Начать новую тему Ответить на тему


Сейчас этот форум просматривают: нет зарегистрированных пользователей и гости: 3


Вы не можете начинать темы
Вы не можете отвечать на сообщения
Вы не можете редактировать свои сообщения
Вы не можете удалять свои сообщения
Вы не можете добавлять вложения

Перейти:  
Для Мосгорсуда, Роскомнадзора и рекламодателей: mosgorsud-torrent[собачка]yandex.ru
ppkBB3cker v.2 © 2008-2014 @ PPK | style by 9CaraTT

Ресурс не предоставляет электронные версии произведений, а занимается лишь коллекционированием и каталогизацией ссылок, присылаемых и публикуемых на форуме нашими читателями. Если вы являетесь правообладателем какого-либо представленного материала и не желаете чтобы ссылка на него находилась в нашем каталоге, свяжитесь с нами и мы незамедлительно удалим её. Файлы для обмена на трекере предоставлены пользователями сайта, и администрация не несёт ответственности за их содержание. Просьба не заливать файлы, защищенные авторскими правами, а также файлы нелегального содержания!