img

Статистика раздачи
Размер: 575.93 МБ | Добавлен: 11 окт 2013, 19:51 | Скачали: 143
Сидеров: 3  [0 байт/сек]    Личеров: 0  [0 байт/сек]
Пред. тема | След. тема 
Автор Сообщение

СообщениеДобавлено: 11 окт 2013, 19:51 

Не в сети
Раздал: 0 байт
Скачал: 0 байт
Ратио: Inf.
Торренты: 55876
Сама себе гинеколог. Изабель / Itself gynecologist. Isabelle - HDRip 1080p

#77
Год выпуска: 2012
Жанр: Asian, Striptease, Masturbation, Speculum, Gyno, Pussy Closeups
Продолжительность: 00:07:50

Описание: Сама себе гинеколог

Качество: HDRip-AVC 1080p
Формат: MPEG
Видео кодек: H.26x
Аудио кодек: MPEG Audio
Видео: MPEG4 Video (H264) 1920x1080 25fps 9 836 Kbps
Аудио: MPEG Audio 44100Hz stereo 224kbps
MediaInfo
Video: MPEG4 Video (H264) 1920x1080 25fps [Video - AVC (H.264), High Profile, Level 4.1, 1920x1080, 25.000 fps (0000,e0,00)]
Audio: MPEG Audio 44100Hz stereo 224kbps [Audio - MPEG1 - Layer 2, 44.1 kHz, 2 chn, 224.0 kbit/s (0000,c0,00)]
=====================================
General
Complete name : C:\Isabelle_ItselfGyno1080.wmv
Format : MPEG-PS
File size : 576 MiB
Duration : 7mn 50s
Overall bit rate mode : Variable
Overall bit rate : 10.3 Mbps

Video
ID : 224 (0xE0)
Format : AVC
Format/Info : Advanced Video Codec
Format profile : High@L4.1
Format settings, CABAC : Yes
Format settings, ReFrames : 4 frames
Duration : 7mn 50s
Bit rate mode : Variable
Bit rate : 9 836 Kbps
Maximum bit rate : 12.0 Mbps
Width : 1 920 pixels
Height : 1 080 pixels
Display aspect ratio : 16:9
Frame rate : 25.000 fps
Standard : PAL
Color space : YUV
Chroma subsampling : 4:2:0
Bit depth : 8 bits
Scan type : Progressive
Bits/(Pixel*Frame) : 0.190
Stream size : 552 MiB (96%)
Color primaries : BT.709
Transfer characteristics : BT.709
Matrix coefficients : BT.709

Audio
ID : 192 (0xC0)
Format : MPEG Audio
Format version : Version 1
Format profile : Layer 2
Duration : 7mn 50s
Bit rate mode : Constant
Bit rate : 224 Kbps
Channel(s) : 2 channels
Sampling rate : 44.1 KHz
Compression mode : Lossy
Stream size : 12.6 MiB (2%)
Скриншоты

500x500



Скринлист
batpic

Правила, инструкции, FAQ!!!
Добавлен  11 окт 2013, 19:51

Скачать торрент Магнет ссылка
Скачать торрент
11.67 КБ

Статус
 
Размер  575.93 МБ
Приватный: Нет (DHT включён)
.torrent скачан  143
Не качается торрент? Как скачать Torrent?  




Вернуться к началу
    Профиль Отправить личное сообщение
Страница 1 из 1
Показать сообщения за:  Поле сортировки  
Начать новую тему Ответить на тему


Сейчас этот форум просматривают: нет зарегистрированных пользователей и гости: 2


Вы не можете начинать темы
Вы не можете отвечать на сообщения
Вы не можете редактировать свои сообщения
Вы не можете удалять свои сообщения
Вы не можете добавлять вложения

Перейти:  
Для Мосгорсуда, Роскомнадзора и рекламодателей: mosgorsud-torrent[собачка]yandex.ru
ppkBB3cker v.2 © 2008-2014 @ PPK | style by 9CaraTT

Ресурс не предоставляет электронные версии произведений, а занимается лишь коллекционированием и каталогизацией ссылок, присылаемых и публикуемых на форуме нашими читателями. Если вы являетесь правообладателем какого-либо представленного материала и не желаете чтобы ссылка на него находилась в нашем каталоге, свяжитесь с нами и мы незамедлительно удалим её. Файлы для обмена на трекере предоставлены пользователями сайта, и администрация не несёт ответственности за их содержание. Просьба не заливать файлы, защищенные авторскими правами, а также файлы нелегального содержания!