img

Статистика раздачи
Размер: 291.57 МБ | Добавлен: 11 окт 2013, 19:51 | Скачали: 409
Сидеров: 0  [0 байт/сек]    Личеров: 2  [0 байт/сек]
Пред. тема | След. тема 
Автор Сообщение

СообщениеДобавлено: 11 окт 2013, 19:51 

Не в сети
Раздал: 0 байт
Скачал: 0 байт
Ратио: Inf.
Торренты: 55889
Сама себе гинеколог. Изабель / Itself gynecologist. Isabelle - HDRip 720p

#77
Год выпуска: 2012
Жанр: Asian, Striptease, Masturbation, Speculum, Gyno, Pussy Closeups
Продолжительность: 00:07:50

Описание: Сама себе гинеколог

Качество: HDRip 720p
Формат: WMV
Видео кодек: WMV
Аудио кодек: WMA
Видео: Windows Media Video 9 1280x720 25fps 5114kbps
Аудио: WMA 2 44100Hz stereo 128kbps
MediaInfo
Video: Windows Media Video 9 1280x720 25fps 5114kbps [Raw Video 1]
Audio: WMA 2 44100Hz stereo 128kbps [Raw Audio 0]
===========================================
General
Complete name : C:\Isabelle_ItselfGyno720.wmv
Format : Windows Media
File size : 292 MiB
Duration : 7mn 50s
Overall bit rate mode : Constant
Overall bit rate : 5 198 Kbps
Maximum Overall bit rate : 5 285 Kbps
Performer : ExposedNurses.com
Recorded date : 2012
Encoded date : UTC 2012-07-14 10:32:38.600
Copyright : (c) 2012 ExposedNurses.com
SfOriginalFPS : 250000

Video
ID : 2
Format : VC-1
Format profile : MP@HL
Codec ID : WMV3
Codec ID/Info : Windows Media Video 9
Codec ID/Hint : WMV3
Description of the codec : Windows Media Video 9 - Professional
Duration : 7mn 50s
Bit rate mode : Constant
Bit rate : 5 115 Kbps
Width : 1 280 pixels
Height : 720 pixels
Display aspect ratio : 16:9
Frame rate : 25.000 fps
Bit depth : 8 bits
Scan type : Progressive
Compression mode : Lossy
Bits/(Pixel*Frame) : 0.222
Stream size : 287 MiB (98%)

Audio
ID : 1
Format : WMA
Format version : Version 2
Codec ID : 161
Codec ID/Info : Windows Media Audio
Description of the codec : Windows Media Audio 9.2 - 128 kbps, 44 kHz, stereo (A/V) 1-pass CBR
Duration : 7mn 50s
Bit rate mode : Constant
Bit rate : 128 Kbps
Channel(s) : 2 channels
Sampling rate : 44.1 KHz
Bit depth : 16 bits
Stream size : 7.18 MiB (2%)

Menu
Скринлист
batpic
Скриншоты

500x500




Правила, инструкции, FAQ!!!
Добавлен  11 окт 2013, 19:51

Скачать торрент Магнет ссылка
Скачать торрент
11.92 КБ

Статус
 
Размер  291.57 МБ
Приватный: Нет (DHT включён)
.torrent скачан  409
Не качается торрент? Как скачать Torrent?  




Вернуться к началу
    Профиль Отправить личное сообщение
Страница 1 из 1
Показать сообщения за:  Поле сортировки  
Начать новую тему Ответить на тему


Сейчас этот форум просматривают: нет зарегистрированных пользователей и гости: 2


Вы не можете начинать темы
Вы не можете отвечать на сообщения
Вы не можете редактировать свои сообщения
Вы не можете удалять свои сообщения
Вы не можете добавлять вложения

Перейти:  
Для Мосгорсуда, Роскомнадзора и рекламодателей: mosgorsud-torrent[собачка]yandex.ru
ppkBB3cker v.2 © 2008-2014 @ PPK | style by 9CaraTT

Ресурс не предоставляет электронные версии произведений, а занимается лишь коллекционированием и каталогизацией ссылок, присылаемых и публикуемых на форуме нашими читателями. Если вы являетесь правообладателем какого-либо представленного материала и не желаете чтобы ссылка на него находилась в нашем каталоге, свяжитесь с нами и мы незамедлительно удалим её. Файлы для обмена на трекере предоставлены пользователями сайта, и администрация не несёт ответственности за их содержание. Просьба не заливать файлы, защищенные авторскими правами, а также файлы нелегального содержания!