img

Статистика раздачи
Размер: 1.47 ГБ | Добавлен: 11 окт 2013, 19:51 | Скачали: 447
Сидеров: 0  [0 байт/сек]    Личеров: 0  [0 байт/сек]
Пред. тема | След. тема 
Автор Сообщение

СообщениеДобавлено: 11 окт 2013, 19:51 

Не в сети
Раздал: 0 байт
Скачал: 0 байт
Ратио: Inf.
Торренты: 56006
Гинекологический осмотр Изабель / Gynecological examination Isabelle - HDRip 720p

#77
Год выпуска: 2012
Жанр: Asian, Striptease, Masturbation, Speculum, Gyno, Pussy Closeups
Продолжительность: 00:33:30

Описание: Гинекологический осмотр Изабель

Качество: HDRip-AVC 720p
Формат: MPEG
Видео кодек: H.26x
Аудио кодек: MPEG Audio
Видео: MPEG4 Video (H264) 1280x720 25fps 5 939 Kbps
Аудио: MPEG Audio 44100Hz stereo 224kbps
MediaInfo
Video: MPEG4 Video (H264) 1280x720 25fps [Video - AVC (H.264), High Profile, Level 4.1, 1280x720, 25.000 fps (0000,e0,00)]
Audio: MPEG Audio 44100Hz stereo 224kbps [Audio - MPEG1 - Layer 2, 44.1 kHz, 2 chn, 224.0 kbit/s (0000,c0,00)]
===================================
General
Complete name : C:\GynoExam_Isabelle720.mpg
Format : MPEG-PS
File size : 1.47 GiB
Duration : 33mn 30s
Overall bit rate mode : Variable
Overall bit rate : 6 288 Kbps

Video
ID : 224 (0xE0)
Format : AVC
Format/Info : Advanced Video Codec
Format profile : High@L4.1
Format settings, CABAC : Yes
Format settings, ReFrames : 4 frames
Format settings, GOP : M=3, N=33
Duration : 33mn 30s
Bit rate mode : Variable
Bit rate : 5 939 Kbps
Maximum bit rate : 8 000 Kbps
Width : 1 280 pixels
Height : 720 pixels
Display aspect ratio : 16:9
Frame rate : 25.000 fps
Standard : PAL
Color space : YUV
Chroma subsampling : 4:2:0
Bit depth : 8 bits
Scan type : Progressive
Bits/(Pixel*Frame) : 0.258
Stream size : 1.39 GiB (94%)
Color primaries : BT.709
Transfer characteristics : BT.709
Matrix coefficients : BT.709

Audio
ID : 192 (0xC0)
Format : MPEG Audio
Format version : Version 1
Format profile : Layer 2
Duration : 33mn 30s
Bit rate mode : Constant
Bit rate : 224 Kbps
Channel(s) : 2 channels
Sampling rate : 44.1 KHz
Compression mode : Lossy
Stream size : 53.7 MiB (4%)
Скриншоты

500x500








Скринлист
batpic

Правила, инструкции, FAQ!!!
Добавлен  11 окт 2013, 19:51

Скачать торрент
Скачать торрент
15.15 КБ

Статус
 
Размер  1.47 ГБ
Приватный: Нет (DHT включён)
.torrent скачан  447
Не качается торрент? Как скачать Torrent?  




Вернуться к началу
    Профиль Отправить личное сообщение
Страница 1 из 1
Показать сообщения за:  Поле сортировки  
Начать новую тему Ответить на тему


Сейчас этот форум просматривают: нет зарегистрированных пользователей и гости: 2


Вы не можете начинать темы
Вы не можете отвечать на сообщения
Вы не можете редактировать свои сообщения
Вы не можете удалять свои сообщения
Вы не можете добавлять вложения

Перейти:  
Для Мосгорсуда, Роскомнадзора и рекламодателей: mosgorsud-torrent[собачка]yandex.ru
ppkBB3cker v.2 © 2008-2014 @ PPK | style by 9CaraTT

Ресурс не предоставляет электронные версии произведений, а занимается лишь коллекционированием и каталогизацией ссылок, присылаемых и публикуемых на форуме нашими читателями. Если вы являетесь правообладателем какого-либо представленного материала и не желаете чтобы ссылка на него находилась в нашем каталоге, свяжитесь с нами и мы незамедлительно удалим её. Файлы для обмена на трекере предоставлены пользователями сайта, и администрация не несёт ответственности за их содержание. Просьба не заливать файлы, защищенные авторскими правами, а также файлы нелегального содержания!