img

Статистика раздачи
Размер: 1.02 ГБ | Добавлен: 11 окт 2013, 19:51 | Скачали: 841
Сидеров: 0  [0 байт/сек]    Личеров: 0  [0 байт/сек]
Пред. тема | След. тема 
Автор Сообщение

СообщениеДобавлено: 11 окт 2013, 19:51 

Не в сети
Раздал: 0 байт
Скачал: 0 байт
Ратио: Inf.
Торренты: 55825
Застенчивая на медосмотре / Timid on physical examination HDRip-AVC 1080p

#77
Год выпуска: 2012
Жанр: Gyno,medical fetish,lesbo,strapon
Продолжительность: 00:23:13

Описание:
Застенчивая девушка, стеснявшаяся обнажиться перед доктором, была подвергнута медосмотру, а затем отрахана страпоном.

Shy girl shy strip naked in front of a doctor, was subjected to medical examination and then strapon fuck.

Качество: HDTVRip-AVC
Формат: mpg
Видео кодек: H.26x
Аудио кодек: MPEG Layer 2
Видео: MPEG4 Video (H264) 1920x1080 25fps 5 950 Kbps
Аудио: MPEG Audio 44100Hz stereo 224kbps
MediaInfo
Video: MPEG4 Video (H264) 1920x1080 25fps [Video - AVC (H.264), High Profile, Level 4.1, 1920x1080, 25.000 fps (0000,e0,00)]
Audio: MPEG Audio 44100Hz stereo 224kbps [Audio - MPEG1 - Layer 2, 44.1 kHz, 2 chn, 224.0 kbit/s (0000,c0,00)]
===================================================================================================
General
Complete name : C:\ZastenchivayaMedosmotr1080.mpg
Format : MPEG-PS
File size : 1.02 GiB
Duration : 23mn 13s
Overall bit rate mode : Variable
Overall bit rate : 6 299 Kbps

Video
ID : 224 (0xE0)
Format : AVC
Format/Info : Advanced Video Codec
Format profile : High@L4.1
Format settings, CABAC : Yes
Format settings, ReFrames : 4 frames
Duration : 23mn 13s
Bit rate mode : Variable
Bit rate : 5 950 Kbps
Maximum bit rate : 8 000 Kbps
Width : 1 920 pixels
Height : 1 088 pixels
Display aspect ratio : 16:9
Frame rate : 25.000 fps
Standard : PAL
Color space : YUV
Chroma subsampling : 4:2:0
Bit depth : 8 bits
Scan type : Interlaced
Scan order : Top Field First
Bits/(Pixel*Frame) : 0.114
Stream size : 989 MiB (94%)
Color primaries : BT.709
Transfer characteristics : BT.709
Matrix coefficients : BT.709

Audio
ID : 192 (0xC0)
Format : MPEG Audio
Format version : Version 1
Format profile : Layer 2
Duration : 23mn 13s
Bit rate mode : Constant
Bit rate : 224 Kbps
Channel(s) : 2 channels
Sampling rate : 44.1 KHz
Compression mode : Lossy
Stream size : 37.2 MiB (4%)
Скриншоты

500x500
Скринлист
batpic
Мои Публикации

Правила, инструкции, FAQ!!!
Добавлен  11 окт 2013, 19:51

Скачать торрент
Скачать торрент
10.66 КБ

Статус
 
Размер  1.02 ГБ
Приватный: Нет (DHT включён)
.torrent скачан  841
Не качается торрент? Как скачать Torrent?  




Вернуться к началу
    Профиль Отправить личное сообщение
Страница 1 из 1
Показать сообщения за:  Поле сортировки  
Начать новую тему Ответить на тему


Сейчас этот форум просматривают: нет зарегистрированных пользователей и гости: 3


Вы не можете начинать темы
Вы не можете отвечать на сообщения
Вы не можете редактировать свои сообщения
Вы не можете удалять свои сообщения
Вы не можете добавлять вложения

Перейти:  
Для Мосгорсуда, Роскомнадзора и рекламодателей: mosgorsud-torrent[собачка]yandex.ru
ppkBB3cker v.2 © 2008-2014 @ PPK | style by 9CaraTT

Ресурс не предоставляет электронные версии произведений, а занимается лишь коллекционированием и каталогизацией ссылок, присылаемых и публикуемых на форуме нашими читателями. Если вы являетесь правообладателем какого-либо представленного материала и не желаете чтобы ссылка на него находилась в нашем каталоге, свяжитесь с нами и мы незамедлительно удалим её. Файлы для обмена на трекере предоставлены пользователями сайта, и администрация не несёт ответственности за их содержание. Просьба не заливать файлы, защищенные авторскими правами, а также файлы нелегального содержания!