img

Статистика раздачи
Размер: 1.14 ГБ | Добавлен: 11 окт 2013, 19:51 | Скачали: 1042
Сидеров: 1  [0 байт/сек]    Личеров: 0  [0 байт/сек]
Пред. тема | След. тема 
Автор Сообщение

СообщениеДобавлено: 11 окт 2013, 19:51 

Не в сети
Раздал: 0 байт
Скачал: 0 байт
Ратио: Inf.
Торренты: 55776
Мария Сидорова на медосмотре / Maria Sidorova on physical examination HDRip-AVC 720p

#77
Год выпуска: 2012
Жанр: Gyno,medical fetish,lesbo,strapon
Продолжительность: 00:26:00

Описание:
...Мария стесняясь разделась, она не знала что доктор лесбиянка, и придется немного пошалить, что бы получить справку. Маша сопротивлялась, немного. Вошла во вкус,
игрушка - старпон и медицинский осмотр перестал быть томным.
- Получила Машенька заветную справку.

...Mary embarrassed stripped, she did not know what the doctor lesbian, and have a little prank that would get help. Masha struggled a bit. Entered into the taste,
toy - старпон and medical examination ceased to be weary.
- Masha received a medical certificate.

Качество: HDTVRip-AVC
Формат: mpg
Видео кодек: H.26x
Аудио кодек: MPEG Layer 2
Видео: MPEG4 Video (H264) 1280x726 25fps 5 946 Kbps
Аудио: MPEG Audio 44100Hz stereo 224kbps
MediaInfo
Video: MPEG4 Video (H264) 1280x726 25fps [Video - AVC (H.264), High Profile, Level 4.1, 1280x726, 25.000 fps (0000,e0,00)]
Audio: MPEG Audio 44100Hz stereo 224kbps [Audio - MPEG1 - Layer 2, 44.1 kHz, 2 chn, 224.0 kbit/s (0000,c0,00)]
==================================
General
Complete name : C:\Mariya_Sidorova720.mpg
Format : MPEG-PS
File size : 1.14 GiB
Duration : 26mn 0s
Overall bit rate mode : Variable
Overall bit rate : 6 295 Kbps

Video
ID : 224 (0xE0)
Format : AVC
Format/Info : Advanced Video Codec
Format profile : High@L4.1
Format settings, CABAC : Yes
Format settings, ReFrames : 4 frames
Duration : 26mn 0s
Bit rate mode : Variable
Bit rate : 5 946 Kbps
Maximum bit rate : 8 000 Kbps
Width : 1 280 pixels
Height : 726 pixels
Display aspect ratio : 16:9
Frame rate : 25.000 fps
Standard : PAL
Color space : YUV
Chroma subsampling : 4:2:0
Bit depth : 8 bits
Scan type : Progressive
Bits/(Pixel*Frame) : 0.256
Stream size : 1.08 GiB (94%)
Color primaries : BT.709
Transfer characteristics : BT.709
Matrix coefficients : BT.709

Audio
ID : 192 (0xC0)
Format : MPEG Audio
Format version : Version 1
Format profile : Layer 2
Duration : 26mn 0s
Bit rate mode : Constant
Bit rate : 224 Kbps
Channel(s) : 2 channels
Sampling rate : 44.1 KHz
Compression mode : Lossy
Stream size : 41.7 MiB (4%)
Скриншоты

500x500

Скринлист
Мои Публикации

Правила, инструкции, FAQ!!!
Добавлен  11 окт 2013, 19:51

Скачать торрент
Скачать торрент
11.86 КБ

Статус
 
Размер  1.14 ГБ
Приватный: Нет (DHT включён)
.torrent скачан  1042
Не качается торрент? Как скачать Torrent?  




Вернуться к началу
    Профиль Отправить личное сообщение
Страница 1 из 1
Показать сообщения за:  Поле сортировки  
Начать новую тему Ответить на тему


Сейчас этот форум просматривают: нет зарегистрированных пользователей и гости: 2


Вы не можете начинать темы
Вы не можете отвечать на сообщения
Вы не можете редактировать свои сообщения
Вы не можете удалять свои сообщения
Вы не можете добавлять вложения

Перейти:  
Для Мосгорсуда, Роскомнадзора и рекламодателей: mosgorsud-torrent[собачка]yandex.ru
ppkBB3cker v.2 © 2008-2014 @ PPK | style by 9CaraTT

Ресурс не предоставляет электронные версии произведений, а занимается лишь коллекционированием и каталогизацией ссылок, присылаемых и публикуемых на форуме нашими читателями. Если вы являетесь правообладателем какого-либо представленного материала и не желаете чтобы ссылка на него находилась в нашем каталоге, свяжитесь с нами и мы незамедлительно удалим её. Файлы для обмена на трекере предоставлены пользователями сайта, и администрация не несёт ответственности за их содержание. Просьба не заливать файлы, защищенные авторскими правами, а также файлы нелегального содержания!