img

Статистика раздачи
Размер: 1.81 ГБ | Добавлен: 29 июл 2016, 23:07 | Скачали: 3
Сидеров: 2  [0 байт/сек]    Личеров: 0  [0 байт/сек]
Пред. тема | След. тема 
Автор Сообщение

СообщениеДобавлено: 29 июл 2016, 23:07 

Не в сети
Раздал: 284.18 ТБ
Скачал: 118.25 ТБ
Ратио: 2.403
Торренты: 6849

Год производства: 2016
Жанр: BDSM, Fetish
В ролях: Darling Deicide

Тип видео : HD
Формат видео : MP4
Video
ID : 1
Format : AVC
Format/Info : Advanced Video Codec
Format profile : High@L3.2
Format settings, CABAC : Yes
Format settings, ReFrames : 2 frames
Codec ID : avc1
Codec ID/Info : Advanced Video Coding
Duration : 50mn 25s
Source duration : 50mn 25s
Bit rate mode : Variable
Bit rate : 4 993 Kbps
Maximum bit rate : 7 000 Kbps
Width : 1 280 pixels
Height : 720 pixels
Display aspect ratio : 16:9
Frame rate mode : Constant
Frame rate : 29.970 (30000/1001) fps
Color space : YUV
Chroma subsampling : 4:2:0
Bit depth : 8 bits
Scan type : Progressive
Bits/(Pixel*Frame) : 0.181
Stream size : 1.76 GiB (97%)
Source stream size : 1.76 GiB (97%)
Encoded date : UTC 2015-10-26 18:22:55
Tagged date : UTC 2015-10-26 18:22:55

Audio
ID : 2
Format : AAC
Format/Info : Advanced Audio Codec
Format profile : LC
Codec ID : 40
Duration : 50mn 25s
Bit rate mode : Variable
Bit rate : 128 Kbps
Maximum bit rate : 137 Kbps
Channel(s) : 2 channels
Channel positions : Front: L R
Sampling rate : 44.1 KHz
Frame rate : 43.066 fps (1024 spf)
Compression mode : Lossy
Stream size : 45.3 MiB (2%)
Encoded date : UTC 2015-10-26 18:22:55
Tagged date : UTC 2015-10-26 18:22:55

Скриншоты:

Правила, инструкции, FAQ!!!
Добавлен  29 июл 2016, 23:07

Скачать торрент
Скачать торрент
145.03 КБ

Статус
 
Размер  1.81 ГБ
Приватный: Нет (DHT включён)
.torrent скачан  3
Не качается торрент? Как скачать Torrent?  




Вернуться к началу
    Профиль Отправить личное сообщение
Страница 1 из 1
Показать сообщения за:  Поле сортировки  
Начать новую тему Ответить на тему


Сейчас этот форум просматривают: нет зарегистрированных пользователей и гости: 1


Вы не можете начинать темы
Вы не можете отвечать на сообщения
Вы не можете редактировать свои сообщения
Вы не можете удалять свои сообщения
Вы не можете добавлять вложения

Перейти:  
Для Мосгорсуда, Роскомнадзора и рекламодателей: mosgorsud-torrent[собачка]yandex.ru
ppkBB3cker v.2 © 2008-2014 @ PPK | style by 9CaraTT

Ресурс не предоставляет электронные версии произведений, а занимается лишь коллекционированием и каталогизацией ссылок, присылаемых и публикуемых на форуме нашими читателями. Если вы являетесь правообладателем какого-либо представленного материала и не желаете чтобы ссылка на него находилась в нашем каталоге, свяжитесь с нами и мы незамедлительно удалим её. Файлы для обмена на трекере предоставлены пользователями сайта, и администрация не несёт ответственности за их содержание. Просьба не заливать файлы, защищенные авторскими правами, а также файлы нелегального содержания!