img

Статистика раздачи
Размер: 631.11 МБ | Добавлен: 02 окт 2016, 07:34 | Скачали: 462
Сидеров: 63  [0 байт/сек]    Личеров: 49  [0 байт/сек]
Пред. тема | След. тема 
Автор Сообщение

СообщениеДобавлено: 02 окт 2016, 07:34 

Не в сети
Раздал: 307.49 ТБ
Скачал: 123.81 ТБ
Ратио: 2.484
Торренты: 6841
Год производства: 2016
Жанр: BDSM

Welcome Nadia White to the pages of Sexually Broken. This hot blonde
big titted MILF was made for rough sex and bondage.
We have Nadia bound in a custom bondage device. Hard metal hold her
legs spread, and her hand are stuck in metal shackles. Completely
helpless, Nadia can do nothing but moan, cum and scream as the dicks
fuck her tight little pussy into oblivion. We even introduce the
plastic sheet to Nadia cute face. It\'s amazing how a lack of air
will cause a slut to cum harder than she ever has before.
Big dicks, big tits, amazing bondage, and honest real brutal fucking
is why Sexually Broken has over 8 Nominations from both Xbiz and AVN
for best BDSM site of the year 2 years running. Join today to see
the very best in custom bondage and rough sex.

Тип видео : HD
Формат видео : MP4
Video
ID : 2
Format : AVC
Format/Info : Advanced Video Codec
Format profile : Main@L3.1
Format settings, CABAC : No
Format settings, ReFrames : 2 frames
Codec ID : avc1
Codec ID/Info : Advanced Video Coding
Duration : 11mn 37s
Bit rate mode : Variable
Bit rate : 7 472 Kbps
Maximum bit rate : 768 Kbps
Width : 1 280 pixels
Height : 720 pixels
Display aspect ratio : 16:9
Frame rate mode : Constant
Frame rate : 23.976 (24000/1001) fps
Original frame rate : 25.000 fps
Color space : YUV
Chroma subsampling : 4:2:0
Bit depth : 8 bits
Scan type : Progressive
Bits/(Pixel*Frame) : 0.338
Stream size : 622 MiB (98%)
Title : Core Media Video
Encoded date : UTC 2016-09-28 18:17:32
Tagged date : UTC 2016-09-28 18:34:23

Audio
ID : 1
Format : AAC
Format/Info : Advanced Audio Codec
Format profile : LC
Codec ID : 40
Duration : 11mn 37s
Source duration : 11mn 37s
Bit rate mode : Constant
Bit rate : 111 Kbps
Nominal bit rate : 128 Kbps
Channel(s) : 2 channels
Channel positions : Front: L R
Sampling rate : 48.0 KHz
Frame rate : 46.875 fps (1024 spf)
Compression mode : Lossy
Stream size : 9.21 MiB (1%)
Source stream size : 9.21 MiB (1%)
Title : Core Media Audio
Language : English
Encoded date : UTC 2016-09-28 18:17:32
Tagged date : UTC 2016-09-28 18:34:23

Скриншоты:

Правила, инструкции, FAQ!!!
Добавлен  02 окт 2016, 07:34

Скачать торрент
Скачать торрент
49.86 КБ

Статус
 
Размер  631.11 МБ
Приватный: Нет (DHT включён)
.torrent скачан  462
Не качается торрент? Как скачать Torrent?  




Вернуться к началу
    Профиль Отправить личное сообщение
Страница 1 из 1
Показать сообщения за:  Поле сортировки  
Начать новую тему Ответить на тему


Сейчас этот форум просматривают: нет зарегистрированных пользователей и гости: 3


Вы не можете начинать темы
Вы не можете отвечать на сообщения
Вы не можете редактировать свои сообщения
Вы не можете удалять свои сообщения
Вы не можете добавлять вложения

Перейти:  
Для Мосгорсуда, Роскомнадзора и рекламодателей: mosgorsud-torrent[собачка]yandex.ru
ppkBB3cker v.2 © 2008-2014 @ PPK | style by 9CaraTT

Ресурс не предоставляет электронные версии произведений, а занимается лишь коллекционированием и каталогизацией ссылок, присылаемых и публикуемых на форуме нашими читателями. Если вы являетесь правообладателем какого-либо представленного материала и не желаете чтобы ссылка на него находилась в нашем каталоге, свяжитесь с нами и мы незамедлительно удалим её. Файлы для обмена на трекере предоставлены пользователями сайта, и администрация не несёт ответственности за их содержание. Просьба не заливать файлы, защищенные авторскими правами, а также файлы нелегального содержания!