img

Статистика раздачи
Размер: 689.18 МБ | Добавлен: 14 ноя 2016, 05:54 | Скачали: 937
Сидеров: 75  [0 байт/сек]    Личеров: 27  [0 байт/сек]
Пред. тема | След. тема 
Автор Сообщение

СообщениеДобавлено: 14 ноя 2016, 05:54 

Не в сети
Раздал: 317.27 ТБ
Скачал: 127.76 ТБ
Ратио: 2.483
Торренты: 6902
Год производства: 2016
Жанр: All Sex,Asian , Small Tits,BDSM
Продолжительность: 12mn 36s
В ролях: Milcah Halili
We have Milcah Halili bound and helpless on the only Bondage and
rough sex site on the net. We don\'t hit our models (unless they
beg), we fuck em!

Completely bound and helpless, our hot tiny Asian girl is hooded,
gagged, and blindfolded, while stuck in a \"fuck me\" position. Matt
and Dee bring the cock. Over and over they make Milcah cum. One cock
after an another, non stop brutal pounding. Milcah can only scream
into her gag as she is made to orgasm over and over without any hope
of reprise.

From cocks to tongues, to vibrators, Milcah is powerless to stop any
of those from ripping orgasms out of her exhausted body.

We update 3 times a week, with a different girl and unique custom
bondage predicament! We have a live show each month so you can see
how we really destroy these girls in real time. Often copied, but
never duplicated, Sexually Broken is the only Premium hardcore
bondage site on the net!
Тип видео : HD
Формат видео : MP4
Video
ID : 2
Format : AVC
Format/Info : Advanced Video Codec
Format profile : Main@L3.1
Format settings, CABAC : No
Format settings, ReFrames : 2 frames
Codec ID : avc1
Codec ID/Info : Advanced Video Coding
Duration : 12mn 36s
Bit rate mode : Variable
Bit rate : 7 525 Kbps
Maximum bit rate : 768 Kbps
Width : 1 280 pixels
Height : 720 pixels
Display aspect ratio : 16:9
Frame rate mode : Constant
Frame rate : 23.976 (24000/1001) fps
Original frame rate : 25.000 fps
Color space : YUV
Chroma subsampling : 4:2:0
Bit depth : 8 bits
Scan type : Progressive
Bits/(Pixel*Frame) : 0.341
Stream size : 679 MiB (98%)
Title : Core Media Video
Encoded date : UTC 2016-10-18 17:52:07
Tagged date : UTC 2016-10-18 18:06:58

Audio
ID : 1
Format : AAC
Format/Info : Advanced Audio Codec
Format profile : LC
Codec ID : 40
Duration : 12mn 36s
Source duration : 12mn 36s
Bit rate mode : Constant
Bit rate : 113 Kbps
Nominal bit rate : 128 Kbps
Channel(s) : 2 channels
Channel positions : Front: L R
Sampling rate : 48.0 KHz
Frame rate : 46.875 fps (1024 spf)
Compression mode : Lossy
Stream size : 10.2 MiB (1%)
Source stream size : 10.2 MiB (1%)
Title : Core Media Audio
Language : English
Encoded date : UTC 2016-10-18 17:52:07
Tagged date : UTC 2016-10-18 18:06:5

Скриншоты:

Правила, инструкции, FAQ!!!
Добавлен  14 ноя 2016, 05:54

Скачать торрент Магнет ссылка
Скачать торрент
54.39 КБ

Статус
 
Размер  689.18 МБ
Приватный: Нет (DHT включён)
.torrent скачан  937
Не качается торрент? Как скачать Torrent?  




Вернуться к началу
    Профиль Отправить личное сообщение
Страница 1 из 1
Показать сообщения за:  Поле сортировки  
Начать новую тему Ответить на тему


Сейчас этот форум просматривают: нет зарегистрированных пользователей и гости: 6


Вы не можете начинать темы
Вы не можете отвечать на сообщения
Вы не можете редактировать свои сообщения
Вы не можете удалять свои сообщения
Вы не можете добавлять вложения

Перейти:  
Для Мосгорсуда, Роскомнадзора и рекламодателей: mosgorsud-torrent[собачка]yandex.ru
ppkBB3cker v.2 © 2008-2014 @ PPK | style by 9CaraTT

Ресурс не предоставляет электронные версии произведений, а занимается лишь коллекционированием и каталогизацией ссылок, присылаемых и публикуемых на форуме нашими читателями. Если вы являетесь правообладателем какого-либо представленного материала и не желаете чтобы ссылка на него находилась в нашем каталоге, свяжитесь с нами и мы незамедлительно удалим её. Файлы для обмена на трекере предоставлены пользователями сайта, и администрация не несёт ответственности за их содержание. Просьба не заливать файлы, защищенные авторскими правами, а также файлы нелегального содержания!