img

Статистика раздачи
Размер: 1.01 ГБ | Добавлен: 16 ноя 2016, 05:56 | Скачали: 1432
Сидеров: 129  [0 байт/сек]    Личеров: 60  [0 байт/сек]
Пред. тема | След. тема 
Автор Сообщение

СообщениеДобавлено: 16 ноя 2016, 05:56 

Не в сети
Раздал: 158.38 ТБ
Скачал: 100.07 ТБ
Ратио: 1.583
Торренты: 6706
Год производства: 2016
Жанр: All Sex,BDSM
Продолжительность: 18mn 58s
В ролях: Syren De Mer
Syren De Mer live BaRS Part 2: Now that the warm up is over, Syren
is about to get fucked so good she forgets her name.

Bound in a unique custom metal bondage device, Syren is about to
feel sexual fear for the for time. The hard cocks come at her and she
does her best to take it. It doesn\'t take long for the cocks to break
her defences and send our hot cougar into total subspace. Complelty
dick drunk, we abuse our sexual slave, making her cum time after
time. She is helpless to get away from dick, and the boys bring it.
The look on Syrens face is all you need to know about what happen,
and there is one more part to go!
Тип видео : HD
Формат видео : MP4
Video
ID : 2
Format : AVC
Format/Info : Advanced Video Codec
Format profile : Main@L3.1
Format settings, CABAC : No
Format settings, ReFrames : 2 frames
Codec ID : avc1
Codec ID/Info : Advanced Video Coding
Duration : 18mn 58s
Bit rate mode : Variable
Bit rate : 7 531 Kbps
Maximum bit rate : 768 Kbps
Width : 1 280 pixels
Height : 720 pixels
Display aspect ratio : 16:9
Frame rate mode : Constant
Frame rate : 23.976 (24000/1001) fps
Original frame rate : 25.000 fps
Color space : YUV
Chroma subsampling : 4:2:0
Bit depth : 8 bits
Scan type : Progressive
Bits/(Pixel*Frame) : 0.341
Stream size : 1 022 MiB (98%)
Title : Core Media Video
Encoded date : UTC 2016-10-31 22:42:40
Tagged date : UTC 2016-10-31 23:21:04

Audio
ID : 1
Format : AAC
Format/Info : Advanced Audio Codec
Format profile : LC
Codec ID : 40
Duration : 18mn 58s
Source duration : 18mn 58s
Bit rate mode : Constant
Bit rate : 112 Kbps
Nominal bit rate : 128 Kbps
Channel(s) : 2 channels
Channel positions : Front: L R
Sampling rate : 48.0 KHz
Frame rate : 46.875 fps (1024 spf)
Compression mode : Lossy
Stream size : 15.1 MiB (1%)
Source stream size : 15.1 MiB (1%)
Title : Core Media Audio
Language : English
Encoded date : UTC 2016-10-31 22:42:40
Tagged date : UTC 2016-10-31 23:21:04

Скриншоты:

Правила, инструкции, FAQ!!!
Добавлен  16 ноя 2016, 05:56

Скачать торрент
Скачать торрент
82.5 КБ

Статус
 
Размер  1.01 ГБ
Приватный: Нет (DHT включён)
.torrent скачан  1432
Не качается торрент? Как скачать Torrent?  




Вернуться к началу
    Профиль Отправить личное сообщение
Страница 1 из 1
Показать сообщения за:  Поле сортировки  
Начать новую тему Ответить на тему


Сейчас этот форум просматривают: нет зарегистрированных пользователей и гости: 5


Вы не можете начинать темы
Вы не можете отвечать на сообщения
Вы не можете редактировать свои сообщения
Вы не можете удалять свои сообщения
Вы не можете добавлять вложения

Перейти:  
Для Мосгорсуда, Роскомнадзора и рекламодателей: mosgorsud-torrent[собачка]yandex.ru
ppkBB3cker v.2 © 2008-2014 @ PPK | style by 9CaraTT

Ресурс не предоставляет электронные версии произведений, а занимается лишь коллекционированием и каталогизацией ссылок, присылаемых и публикуемых на форуме нашими читателями. Если вы являетесь правообладателем какого-либо представленного материала и не желаете чтобы ссылка на него находилась в нашем каталоге, свяжитесь с нами и мы незамедлительно удалим её. Файлы для обмена на трекере предоставлены пользователями сайта, и администрация не несёт ответственности за их содержание. Просьба не заливать файлы, защищенные авторскими правами, а также файлы нелегального содержания!