img



Начать новую тему Ответить на тему
Пред. тема | След. тема 
Автор Сообщение

СообщениеДобавлено: 17 ноя 2016, 05:26 

Не в сети
Раздал: 248.32 ТБ
Скачал: 115.16 ТБ
Ратио: 2.156
Торренты: 6845
Год производства: 2016
Жанр: Fetish , Hardcore , Small Tits , Tattoos , Skinny
Продолжительность: 35mn 31s
В ролях: Sasha Heart

Sasha Heart\'s body is absolutely incredible. She has perky breasts,
an ass that won\'t quit, and an all over tight little figure that
could make a grown man cry. That, however is not the plan. Matt
Williams ball gags her and ties her legs so they are spread wide and
her pussy exposed. Then he ties her nipple clamps down to the floor
so that she can\'t move without causing herself pain. Only then does
he take out the cane and start beating her ass and up and down her
legs. It looks like Sasha is going to be the one doing all the
crying today.
Тип видео : HD
Формат видео : MP4
Video
ID : 2
Format : AVC
Format/Info : Advanced Video Codec
Format profile : Main@L3.1
Format settings, CABAC : No
Format settings, ReFrames : 2 frames
Format settings, GOP : M=2, N=24
Codec ID : avc1
Codec ID/Info : Advanced Video Coding
Duration : 35mn 31s
Bit rate mode : Variable
Bit rate : 7 525 Kbps
Maximum bit rate : 768 Kbps
Width : 1 280 pixels
Height : 720 pixels
Display aspect ratio : 16:9
Frame rate mode : Constant
Frame rate : 23.976 (24000/1001) fps
Original frame rate : 25.000 fps
Color space : YUV
Chroma subsampling : 4:2:0
Bit depth : 8 bits
Scan type : Progressive
Bits/(Pixel*Frame) : 0.341
Stream size : 1.87 GiB (98%)
Title : Core Media Video
Encoded date : UTC 2016-11-10 17:45:27
Tagged date : UTC 2016-11-10 19:05:32

Audio
ID : 1
Format : AAC
Format/Info : Advanced Audio Codec
Format profile : LC
Codec ID : 40
Duration : 35mn 31s
Source duration : 35mn 31s
Bit rate mode : Constant
Bit rate : 113 Kbps
Nominal bit rate : 128 Kbps
Channel(s) : 2 channels
Channel positions : Front: L R
Sampling rate : 48.0 KHz
Frame rate : 46.875 fps (1024 spf)
Compression mode : Lossy
Stream size : 28.7 MiB (1%)
Source stream size : 28.7 MiB (1%)
Title : Core Media Audio
Language : English
Encoded date : UTC 2016-11-10 17:45:27
Tagged date : UTC 2016-11-10 19:05:32

Скриншоты:


Вернуться к началу
    Профиль Отправить личное сообщение
Страница 1 из 1
Показать сообщения за:  Поле сортировки  
Начать новую тему Ответить на тему

Сейчас этот форум просматривают: нет зарегистрированных пользователей и гости: 1


Вы не можете начинать темы
Вы не можете отвечать на сообщения
Вы не можете редактировать свои сообщения
Вы не можете удалять свои сообщения
Вы не можете добавлять вложения

Перейти:  
Для Мосгорсуда, Роскомнадзора и рекламодателей: mosgorsud-torrent[собачка]yandex.ru
ppkBB3cker v.2 © 2008-2014 @ PPK | style by 9CaraTT

Ресурс не предоставляет электронные версии произведений, а занимается лишь коллекционированием и каталогизацией ссылок, присылаемых и публикуемых на форуме нашими читателями. Если вы являетесь правообладателем какого-либо представленного материала и не желаете чтобы ссылка на него находилась в нашем каталоге, свяжитесь с нами и мы незамедлительно удалим её. Файлы для обмена на трекере предоставлены пользователями сайта, и администрация не несёт ответственности за их содержание. Просьба не заливать файлы, защищенные авторскими правами, а также файлы нелегального содержания!