img

Статистика раздачи
Размер: 1.39 ГБ | Добавлен: 16 фев 2016, 07:26 | Скачали: 442
Сидеров: 7  [0 байт/сек]    Личеров: 8  [0 байт/сек]
Пред. тема | След. тема 
Автор Сообщение

СообщениеДобавлено: 16 фев 2016, 07:26 

Не в сети
Раздал: 160.09 ТБ
Скачал: 71.86 ТБ
Ратио: 2.228
Торренты: 2390
Mistress Chanel Preston 4




Год производства: 2016 г.

Страна: USA

Жанр: Ass Worship, Facesitting, Foot Worship

Продолжительность: 00:48:00

Студия: Meanbitches.com

В ролях: Chanel Preston

Описание:
Mistress Chanel Preston is ready to take slave dom to a dark place. She tells him she is going to make him perform unspeakable, shameful acts, and completely ruin him. She abuses and spits on him, and turns him into her obedient asslickere/footsniffer. HOT SCENE - CHANEL IS ONE THE VERY BEST DOMMES! ASS WORSHIP, FOOT WORSHIP, FACESITTING, DUNGEON
Тип HD видео: 1080p

Mediainfo
Format : MPEG-4
Format profile : Base Media
Codec ID : isom (isom/iso2/avc1/mp41)
File size : 1.39 GiB
Duration : 48mn 3s
Overall bit rate : 4 131 Kbps
Writing application : Lavf55.19.104

Video
ID : 1
Format : AVC
Format/Info : Advanced Video Codec
Format profile : Baseline@L4
Format settings, CABAC : No
Format settings, ReFrames : 3 frames
Codec ID : avc1
Codec ID/Info : Advanced Video Coding
Duration : 48mn 3s
Bit rate : 4 000 Kbps
Width : 1 920 pixels
Height : 1 080 pixels
Display aspect ratio : 16:9
Frame rate mode : Constant
Frame rate : 30.000 fps
Color space : YUV
Chroma subsampling : 4:2:0
Bit depth : 8 bits
Scan type : Progressive
Bits/(Pixel*Frame) : 0.064
Stream size : 1.34 GiB (97%)
Writing library : x264 core 125
Encoding settings : cabac=0 / ref=3 / deblock=1:0:0 / analyse=0x1:0x111 / me=hex / subme=7 / psy=1 / psy_rd=1.00:0.00 / mixed_ref=1 / me_range=16 / chroma_me=1 / trellis=1 / 8x8dct=0 / cqm=0 / deadzone=21,11 / fast_pskip=1 / chroma_qp_offset=-2 / threads=3 / lookahead_threads=1 / sliced_threads=0 / nr=0 / decimate=1 / interlaced=0 / bluray_compat=0 / constrained_intra=0 / bframes=0 / weightp=0 / keyint=250 / keyint_min=25 / scenecut=40 / intra_refresh=0 / rc_lookahead=40 / rc=abr / mbtree=1 / bitrate=4000 / ratetol=1.0 / qcomp=0.60 / qpmin=0 / qpmax=69 / qpstep=4 / ip_ratio=1.40 / aq=1:1.00

Audio
ID : 2
Format : AAC
Format/Info : Advanced Audio Codec
Format profile : LC
Codec ID : 40
Duration : 48mn 3s
Bit rate mode : Constant
Bit rate : 128 Kbps
Channel(s) : 2 channels
Channel positions : Front: L R
Sampling rate : 44.1 KHz
Frame rate : 43.066 fps (1024 spf)
Compression mode : Lossy
Stream size : 44.1 MiB (3%)
Language : English
Default : Yes
Alternate group : 1



Правила, инструкции, FAQ!!!
Добавлен  16 фев 2016, 07:26

Скачать торрент Магнет ссылка
Скачать торрент
14.49 КБ

Статус
 
Размер  1.39 ГБ
Приватный: Нет (DHT включён)
.torrent скачан  442
Не качается торрент? Как скачать Torrent?  




Вернуться к началу
    Профиль Отправить личное сообщение
Страница 1 из 1
Показать сообщения за:  Поле сортировки  
Начать новую тему Ответить на тему


Сейчас этот форум просматривают: нет зарегистрированных пользователей и гости: 1


Вы не можете начинать темы
Вы не можете отвечать на сообщения
Вы не можете редактировать свои сообщения
Вы не можете удалять свои сообщения
Вы не можете добавлять вложения

Перейти:  
Для Мосгорсуда, Роскомнадзора и рекламодателей: mosgorsud-torrent[собачка]yandex.ru
ppkBB3cker v.2 © 2008-2014 @ PPK | style by 9CaraTT

Ресурс не предоставляет электронные версии произведений, а занимается лишь коллекционированием и каталогизацией ссылок, присылаемых и публикуемых на форуме нашими читателями. Если вы являетесь правообладателем какого-либо представленного материала и не желаете чтобы ссылка на него находилась в нашем каталоге, свяжитесь с нами и мы незамедлительно удалим её. Файлы для обмена на трекере предоставлены пользователями сайта, и администрация не несёт ответственности за их содержание. Просьба не заливать файлы, защищенные авторскими правами, а также файлы нелегального содержания!